Dynamic Range Meter - Daten anzeigen

Begonnen von mexx, 14. Juni 2022, 18:45:21

⏪ vorheriges - nächstes ⏩

mexx

14. Juni 2022, 18:45:21 Letzte Bearbeitung: 14. Juni 2022, 18:49:19 von mexx
Hallo,

ich nutze seit langem schon Dynamic Range Meter 1.1.1.

Ich möchte jetzt gern die DR-Werte aus der TXT-Datei in irgend einem Plugin in foobar anzeigen lassen (z.b. WSH Panel Mod).

Ich häng mal eine solche TXT mit ran. Vielleicht kann mir einer dabei helfen.

foobar2000 1.6.11 / Dynamic Range Meter 1.1.1
log date: 2022-06-14 18:35:56

--------------------------------------------------------------------------------
Analyzed: Ten / The Robe - Bonus Collection - CD2
--------------------------------------------------------------------------------

DR         Peak         RMS     Duration Track
--------------------------------------------------------------------------------
DR7       -1.40 dB    -9.38 dB      3:52 01-Warpath
DR7       -1.08 dB    -9.57 dB      4:34 02-Venus And Mars
DR6       -1.01 dB    -8.98 dB      5:41 03-Give Me A Piece Of Your Heart
DR7       -1.31 dB    -9.16 dB      4:04 05-Black Moon Rising
DR11      -2.00 dB   -15.46 dB      2:02 07-Close Your Eyes And Dream
DR11      -0.87 dB   -15.58 dB      1:38 08-Turn Around (Live)
DR7        0.00 dB    -8.32 dB      4:55 09-Xanadu
DR9        0.00 dB   -10.80 dB      4:52 10-Rainbow In The Dark
DR10      -0.26 dB   -12.61 dB      5:18 11-We Rule The Night (Acoustic)
DR11      -0.58 dB   -12.94 dB      4:16 12-Red (Acoustic)
DR10      -2.90 dB   -14.61 dB      3:48 13-Till The End Of Time
--------------------------------------------------------------------------------

Number of tracks:  11
Official DR value: DR9

Samplerate:        44100 Hz
Channels:          2
Bitrate:           320 kbps
Codec:             MP3
================================================================================

mexx

Hurra...Lösung gefunden. Eigentlich sehr einfach:

1. Einstellungen/Advanced/ Dynamic Range Meter..Haken bei Write DR meta data tags setzen
2. Track Info Mod einrichten mit Settings $align(center,top)[DR %DYNAMIC RANGE%]

mexx

Nun brauch ich doch nochmal eure Hilfe.

Meine Settings sind $align(center,middle)[Titel: DR %DYNAMIC RANGE% / Album: DR %ALBUM DYNAMIC RANGE%]

Wenn die beiden Tags nicht vorhanden sind, soll No Dynamic Range angezeigt werden. Sonst steht das Feld leer.

Ich komme mit den Scripts einfach nicht klar.

THX
mexx

grimes

Das beste, was ich hinkriege:
$if2(Titel: DR %dynamic range% / Album: DR %album dynamic range%,No Dynamic Range)

mexx

Jepp, so ist es richtig. Und mit meiner kleinen Ergänzung ist es auch noch mittig im Panel.

$align(center,middle)$if2(Titel: DR %dynamic range% / Album: DR %album dynamic range%,No Dynamic Range)
Vielen Dank für die Hilfe.  :top:

cu
mexx