.cue datei defekt?

Begonnen von mcoke, 24. Januar 2010, 13:45:51

« vorheriges - nächstes »

mcoke

Moin Jungs und Mädels!

Ich habe ein Problem und zwar habe ich von einem Album eine cue und eine flac Datei.
Wenn ich die flac Datei in foobar öffnen, kann ich sie mir problemlos anhören.
Wenn ich jedoch die cue öffne, erscheinen die einzelnen Titel, die ich aber leider nicht abspielen, bzw. nicht konvertieren kann.  :-[

Es kommt folgende Fehlermeldung: "Unable to open item for playback (Object not found):
"D:\Downloads\... FLAC\..... .cue" / index: 1"

Was mache ich falsch? Muss ich noch irgendwas einstellen?

greetz

mcoke

fooamp

Na dann poste doch mal den Inhalt der CUE.

mcoke

welchen inhalt? die einzelnen titel?

tedgo

Dein CUE-File ist doch eine Textdatei mir .cue-Endung.
Was da drin steht, ist der Inhalt und den postest du bitte hier.
Alles klar?

mcoke

Alles klar!

PERFORMER "The Logic Of Pleasure"
TITLE "Blank + Jones"
FILE "The Logic Of Pleasure - Blank + Jones.flac" WAVE
  TRACK 01 AUDIO
    TITLE "Consequences"
    PERFORMER "The Logic Of Pleasure"
    INDEX 01 00:00:00
  TRACK 02 AUDIO
    TITLE "Miracle Cure"
    PERFORMER "The Logic Of Pleasure"
    INDEX 01 06:52:21
  TRACK 03 AUDIO
    TITLE "The Night Starts Here"
    PERFORMER "The Logic Of Pleasure"
    INDEX 01 10:40:60
  TRACK 04 AUDIO
    TITLE "So Cold"
    PERFORMER "The Logic Of Pleasure"
    INDEX 01 14:13:10
  TRACK 05 AUDIO
    TITLE "California Sunset"
    PERFORMER "The Logic Of Pleasure"
    INDEX 01 19:55:09
  TRACK 06 AUDIO
    TITLE "Manifesto"
    PERFORMER "The Logic Of Pleasure"
    INDEX 01 28:11:25
  TRACK 07 AUDIO
    TITLE "Where You Belong"
    PERFORMER "The Logic Of Pleasure"
    INDEX 01 33:49:43
  TRACK 08 AUDIO
    TITLE "Breakout"
    PERFORMER "The Logic Of Pleasure"
    INDEX 01 40:53:47
  TRACK 09 AUDIO
    TITLE "Heart of Wax"
    PERFORMER "The Logic Of Pleasure"
    INDEX 01 47:19:41
  TRACK 10 AUDIO
    TITLE "Catwalk"
    PERFORMER "The Logic Of Pleasure"
    INDEX 01 54:02:72
  TRACK 11 AUDIO
    TITLE "Don't Stop"
    PERFORMER "The Logic Of Pleasure"
    INDEX 00 63:11:38
    INDEX 01 63:11:47

tedgo

Trägt das FLAC-File auch exakt den gleichen Namen wie in der CUE-Datei angegeben (The Logic Of Pleasure - Blank + Jones.flac)?
Befinden sich beide im gleichen Ordner?

mcoke

ok. das war es!

die flac hatte einen anderen namen!

Danke!


fooamp

Habsch mia scho gdacht (ist ja nicht zum ersten mal das Problem hier).

- verschoben nach offtopic -