CDs rippen mit Foobar2000

Begonnen von hugo71, 31. Juli 2021, 11:49:35

⏪ vorheriges - nächstes ⏩

hugo71

huhu....

ich war schon lange nicht hier (schande)

habe nun endlich meine beatkiste sammlung zusammen! dank... eb, disc.. und ama...!

zum rippen habe ich sonst dBpoweramp bzw cuetools verwendet.... bringt nicht die ergebnisse was ich will... habe jetzt mal foobar dafür getestet... geht alles wunderbar!

habe etwas gefunden (siehe bild)



den button "AccurateRip" gibt es bei mir nicht... ist es ein fehlendes plugun?
ich wünsche mir ein log file, das alles korrekt ist....

lieben dank für eine antwort!
schönes we an alle!


grimes

31. Juli 2021, 14:03:52 #1 Letzte Bearbeitung: 01. August 2021, 12:11:58 von grimes
Accuraterip gleicht automatisch Dein Rip-Ergebnis mit einer Datenbank ab. So kannst Du sicherstellen, ob Du bitgenau gerippt hast. Ein plugin ist nicht nötig.
Im Statusbericht das Dir der Ripper ausgibt, steht dann sowas wie: Accurately ripped, confidence: 40

hugo71

hab mich falsch ausgedrückt....bei mir sieht es so aus, ohne den button "AccurateRip"
fehlt mir das passende plugin dafür?

habe foobar 1.6.4 inst.


grimes


hugo71

03. August 2021, 23:11:55 #4 Letzte Bearbeitung: 03. August 2021, 23:23:44 von hugo71
hi :)
plugin war bereits inst.....
mir fehlt im abschluss eine log datei oder m3u file!
die daten liegen einfach nur blank im ordner....ohne info! den umweg "AccurateRip" abfrage sollte nicht wirklich sein... anders wird es im moment nicht gehen?

als beispiel....

Reform-Die Anthologie - Songs 1975-1986 CD1.txt

dBpoweramp Release 16.6 Digital Audio Extraction Log from Dienstag, 3. August 2021 21:34

Drive & Settings
----------------

Ripping with drive 'H:   [ASUS     - BW-16D1HT       ]',  Drive offset: 6,  Overread Lead-in/out: Yes
AccurateRip: Active,  Using C2: Yes,  Cache: 1024 KB,  FUA Cache Invalidate: Yes
Pass 1 Drive Speed: Max,  Pass 2 Drive Speed: 10
Ultra::  Vary Drive Speed: Yes,  Min Passes: 3,  Max Passes: 6,  Finish After Clean Passes: 2
Bad Sector Re-rip::  Drive Speed: 4,  Maximum Re-reads: 100

Encoder: FLAC -compression-level-8 -verify
DSP Effects / Actions: -dspeffect1="Multi-CPU Force= -cpu1 -cpu2" -dspeffect2="CUE Sheet - Multiple Files="

Extraction Log
--------------

Track 1:  Ripped LBA 0 to 14731 (3:16) in 0:25. Filename: A:\_Discography\1\Reform-Die Anthologie - Songs 1975-1986 CD1-2021\01-Reform-Drachentöter._
  AccurateRip: Accurate (confidence 1)     [Pass 1]
  CRC32: 97881D8C     AccurateRip CRC: 29C444A7 (CRCv2)     [DiscID: 013-0022e302-015c5d7a-b211240d-1]
  AccurateRip Verified Confidence 1 [CRCv2 29c444a7]

Track 2:  Ripped LBA 14731 to 46841 (7:08) in 0:48. Filename: A:\_Discography\1\Reform-Die Anthologie - Songs 1975-1986 CD1-2021\02-Reform-Ich Suche Dich._
  AccurateRip: Accurate (confidence 1)     [Pass 1]
  CRC32: AC2528BC     AccurateRip CRC: 3C03CAFB (CRCv2)     [DiscID: 013-0022e302-015c5d7a-b211240d-2]
  AccurateRip Verified Confidence 1 [CRCv2 3c03cafb]

Track 3:  Ripped LBA 46841 to 92045 (10:02) in 0:58. Filename: A:\_Discography\1\Reform-Die Anthologie - Songs 1975-1986 CD1-2021\03-Reform-Feuerball._
  AccurateRip: Accurate (confidence 1)     [Pass 1]
  CRC32: 18E05B8B     AccurateRip CRC: 8B788EF9 (CRCv2)     [DiscID: 013-0022e302-015c5d7a-b211240d-3]
  AccurateRip Verified Confidence 1 [CRCv2 8b788ef9]

Track 4:  Ripped LBA 92045 to 107040 (3:19) in 0:17. Filename: A:\_Discography\1\Reform-Die Anthologie - Songs 1975-1986 CD1-2021\04-Reform-Wie Im Film._
  AccurateRip: Accurate (confidence 1)     [Pass 1]
  CRC32: 284126C6     AccurateRip CRC: 32689705 (CRCv2)     [DiscID: 013-0022e302-015c5d7a-b211240d-4]
  AccurateRip Verified Confidence 1 [CRCv2 32689705]

Track 5:  Ripped LBA 107040 to 128883 (4:51) in 0:24. Filename: A:\_Discography\1\Reform-Die Anthologie - Songs 1975-1986 CD1-2021\05-Reform-He, Schwester, Küss Mich._
  AccurateRip: Accurate (confidence 1)     [Pass 1]
  CRC32: 287EA2FC     AccurateRip CRC: 742DA54C (CRCv2)     [DiscID: 013-0022e302-015c5d7a-b211240d-5]
  AccurateRip Verified Confidence 1 [CRCv2 742da54c]

Track 6:  Ripped LBA 128883 to 152024 (5:08) in 0:24. Filename: A:\_Discography\1\Reform-Die Anthologie - Songs 1975-1986 CD1-2021\06-Reform-Dicke Bohnen._
  AccurateRip: Accurate (confidence 1)     [Pass 1]
  CRC32: 4C642AF2     AccurateRip CRC: 03B362E4 (CRCv2)     [DiscID: 013-0022e302-015c5d7a-b211240d-6]
  AccurateRip Verified Confidence 1 [CRCv2 3b362e4]

Track 7:  Ripped LBA 152024 to 170650 (4:08) in 0:18. Filename: A:\_Discography\1\Reform-Die Anthologie - Songs 1975-1986 CD1-2021\07-Reform-Der Tod Und Das Mädchen._
  AccurateRip: Accurate (confidence 1)     [Pass 1]
  CRC32: BE3C8988     AccurateRip CRC: B505D323 (CRCv2)     [DiscID: 013-0022e302-015c5d7a-b211240d-7]
  AccurateRip Verified Confidence 1 [CRCv2 b505d323]

Track 8:  Ripped LBA 170650 to 198941 (6:17) in 0:27. Filename: A:\_Discography\1\Reform-Die Anthologie - Songs 1975-1986 CD1-2021\08-Reform-Das Hab Ich Nicht So Gern._
  AccurateRip: Accurate (confidence 1)     [Pass 1]
  CRC32: D3441C8C     AccurateRip CRC: 21E654BB (CRCv2)     [DiscID: 013-0022e302-015c5d7a-b211240d-8]
  AccurateRip Verified Confidence 1 [CRCv2 21e654bb]

Track 9:  Ripped LBA 198941 to 226048 (6:01) in 0:24. Filename: A:\_Discography\1\Reform-Die Anthologie - Songs 1975-1986 CD1-2021\09-Reform-Der Löwenzahn._
  AccurateRip: Accurate (confidence 1)     [Pass 1]
  CRC32: AC303BDF     AccurateRip CRC: C1481A21 (CRCv2)     [DiscID: 013-0022e302-015c5d7a-b211240d-9]
  AccurateRip Verified Confidence 1 [CRCv2 c1481a21]

Track 10:  Ripped LBA 226048 to 247180 (4:41) in 0:18. Filename: A:\_Discography\1\Reform-Die Anthologie - Songs 1975-1986 CD1-2021\10-Reform-Über Uns._
  AccurateRip: Accurate (confidence 1)     [Pass 1]
  CRC32: 62FBAE72     AccurateRip CRC: 903B6531 (CRCv2)     [DiscID: 013-0022e302-015c5d7a-b211240d-10]
  AccurateRip Verified Confidence 1 [CRCv2 903b6531]

Track 11:  Ripped LBA 247180 to 270044 (5:04) in 0:19. Filename: A:\_Discography\1\Reform-Die Anthologie - Songs 1975-1986 CD1-2021\11-Reform-Wenn Die Blätter Fallen._
  AccurateRip: Accurate (confidence 1)     [Pass 1]
  CRC32: 428D17B1     AccurateRip CRC: D1BF04F0 (CRCv2)     [DiscID: 013-0022e302-015c5d7a-b211240d-11]
  AccurateRip Verified Confidence 1 [CRCv2 d1bf04f0]

Track 12:  Ripped LBA 270044 to 302785 (7:16) in 0:26. Filename: A:\_Discography\1\Reform-Die Anthologie - Songs 1975-1986 CD1-2021\12-Reform-Stadtgesicht._
  AccurateRip: Accurate (confidence 1)     [Pass 1]
  CRC32: 84DF8BCE     AccurateRip CRC: C03DF914 (CRCv2)     [DiscID: 013-0022e302-015c5d7a-b211240d-12]
  AccurateRip Verified Confidence 1 [CRCv2 c03df914]

Track 13:  Ripped LBA 302785 to 329126 (5:51) in 0:20. Filename: A:\_Discography\1\Reform-Die Anthologie - Songs 1975-1986 CD1-2021\13-Reform-Schöner Traum._
  AccurateRip: Accurate (confidence 1)     [Pass 1]
  CRC32: C519EAD7     AccurateRip CRC: CE21E30F (CRCv2)     [DiscID: 013-0022e302-015c5d7a-b211240d-13]
  AccurateRip Verified Confidence 1 [CRCv2 ce21e30f]

--------------

13 Tracks Ripped Accurately

noch etwas..... CUECorrector4.5 schreibt infos zum label.....denke alles mom nicht möglich beim rippen?

grimes

04. August 2021, 05:04:48 #5 Letzte Bearbeitung: 04. August 2021, 11:02:31 von grimes
Tatsächlich, das fehlt beim neuen File Integrity Verifier. Keine Zusammenfassung in Status report.
Ich kann nur darauf verweisen, dass Du Album markieren | rechtsklick playlist | Utilities | Verify album with AccurateRip verwenden kannst.

"Peter sagte, es würde in einem zukünftigen Update zurückkehren" https://hydrogenaud.io/index.php?topic=119912.msg988180#msg988180

hugo71

ich rippe wie gesagt mit 3 tools zz...

cuetools liefert zz die besten ergebnisse!

Various Artists - Amiga A Go-Go Vol.1 - Deutsch-Demokratische Rare Grooves.accurip
Various Artists - Amiga A Go-Go Vol.1 - Deutsch-Demokratische Rare Grooves.cue
Various Artists - Amiga A Go-Go Vol.1 - Deutsch-Demokratische Rare Grooves.log

das fehlt mom. bei foobar, was schade ist... als player unschlagbar!!!!

hat wer zu peter einen guten draht?

ich nutz lieber ein tool für alles!

lg