Neueste Beiträge

#11
Plugins / Aw: Jscript Panel 3 konfigurie...
Letzter Beitrag von phil75020 - 19. Februar 2024, 18:06:39
Hallo ihr alle

Mit der Komponente "Run Services" habe ich "Buttons" installiert, mit denen ich auf "Last FM", "Spotify" usw. zugreifen kann.

Ich möchte diese "Buttons" in den Bereich verschieben, der für die "Rating" reserviert ist.

Ich habe versucht, dies zu tun, indem ich den Code aus dem ersten Panel in das zweite kopiert habe. Es funktioniert nicht!

Außerdem möchte ich die Breite des Panels erweitern, das für "Rating" reserviert ist. Kannst du mir helfen?

Vielen Dank


#12
Allgemein / DR Wert von externer txt-Datei...
Letzter Beitrag von mexx - 19. Februar 2024, 14:56:12
Hallo,

ich ermittle die DR-Werte des Albums und der Files mit dem Prog TT DR Offline Meter 1.4.
Das Prog erstellt eine txt-Datei von folgendem Format:

----------------------------------------------------------------------------------------------
 Analyzed folder: I:\02_Musik\--1_9--\1st Avenue [NL]\1992 - Tears And Triumph\
----------------------------------------------------------------------------------------------
 DR       Peak         RMS      Filename
----------------------------------------------------------------------------------------------

 DR11    over    -13.51 dB 1st Avenue - Tears And Triumph - 01 - Intro - Going For The Gold.mp3
 DR11   -0.74 dB -14.10 dB 1st Avenue - Tears And Triumph - 02 - Heaven In Your Arms.mp3
 DR11   -0.00 dB -12.33 dB 1st Avenue - Tears And Triumph - 03 - When The Night Is Gone.mp3
 DR11   -0.00 dB -13.65 dB 1st Avenue - Tears And Triumph - 04 - Out Of Reach - Out Of Touch.mp3
 DR11   -0.00 dB -12.72 dB 1st Avenue - Tears And Triumph - 05 - Once In A Million Years.mp3
 DR11    over    -12.79 dB 1st Avenue - Tears And Triumph - 06 - Never Too Late To Live.mp3
 DR11   -0.00 dB -13.02 dB 1st Avenue - Tears And Triumph - 07 - Hurt Before.mp3
 DR10    over    -11.83 dB 1st Avenue - Tears And Triumph - 08 - You Forsake Me.mp3
 DR11   -0.00 dB -11.29 dB 1st Avenue - Tears And Triumph - 09 - Help Me Out.mp3
 DR11   -0.00 dB -11.43 dB 1st Avenue - Tears And Triumph - 10 - Tears And Triumph.mp3
----------------------------------------------------------------------------------------------

 Number of files:    10
 Official DR value:  DR11

==============================================================================================

Wäre es irgendwie möglich (ev. individuelles Script) die DR-Werte daraus in die Tags der einzelnen Files zu exportieren?

Ich befürchte nein, bin aber im Scripting absoluter Laie. Vielleicht gibt es doch eine Möglichkeit.
Das Dynamic Range Meter 1.1 als Plugin in foobar funktioniert einfach zu unzuverlässig.
#13
Plugins / Library tree
Letzter Beitrag von phil75020 - 15. Februar 2024, 18:38:50
Hallo ihr alle

Ich verwende die Komponente "Library Tree".

Zusätzlich zu den Standardoptionen "Library" und "Playlist", ich weiß nicht mehr wie, habe ich "Playlist 2"" erstellt Mehrere Fragen,

- In der neuen Wiedergabeliste wird die Wiedergabeliste entsprechend den abgespielten Titeln erstellt, es ist nicht möglich, neue Titel hinzuzufügen. Kann ich zusätzlich zu den Standardoptionen neue Wiedergabelisten hinzufügen




- Ich wollte diese Playlist (Playlist2) löschen, unmöglich. Wie macht man das?




Vielen Dank


#14
Allgemein / Aw: foobar2000 - Updates
Letzter Beitrag von feNINAlix - 12. Februar 2024, 14:51:07
foobar2000 v2.2 Preview 2024-02-12
2024-02-12


ZitatImproved ReFacets performance.
Fixed erratic behavior if ID3v2 tag contains multiple date fields.
Suppressed advancing to the next playlist item if internet radio playback stops due to a network error.
File Operations: Added an option to overwrite existing files.
Suppressed repeating console messages about decoder shims used.
More thorough error reporting for blank WAV files.
Added video_codec info for Windows Media Video.
#15
Columns UI / Aw: DarkOne4Mod: modernisierte...
Letzter Beitrag von Drugo - 11. Februar 2024, 08:24:43
Hallo allerseits
Ich liebe diese Haut  :smitten:  :smitten:
Darf ich fragen, ob mir jemand sagen kann, wie ich das Herzstück von Last FM zur Playlist hinzufügen kann?
Ich spreche kein Deutsch, tut mir leid
Danke euch allen

"hallo to everyone "  :smitten: 
I love this theme , I would like to ask if somebody could help me to add the last fm love heart in the playlist
thanks
sorry for my bad english
thanks to everybody
#16
Allgemein / Aw: Bestätigung beim löschen v...
Letzter Beitrag von Du_Horst - 09. Februar 2024, 12:17:26
So,jetzt nach dem Downgrade ist der Hacken bei der Meldung wieder zu setzen.Alles richtig.
#17
Allgemein / Aw: Bestätigung beim löschen v...
Letzter Beitrag von Du_Horst - 09. Februar 2024, 12:13:21
Zitat von: Major_Tom in 09. Februar 2024, 10:07:01Hab zwar nur die 2.1.2 installiert, aber die Einstellung sollte sich nicht geändert haben:



Bei der 2.1.2 war auch noch alles i.O..Aber jetzt nicht mehr.Vllt.hilft ein Downgrade
#18
Offtopic / Aw: Doppelte Dateien -> verlin...
Letzter Beitrag von Herzog - 09. Februar 2024, 10:12:23
Hi,

fdupes kann doppelte Dateien suchen, mit einem bash Skript kannst du die Ausgabe filtern und die entsprechenden Dateien löschen um sie mit einem Softlink zu ersetzen. Hier findet sich dazu noch bisschen was: https://unix.stackexchange.com/questions/228015/move-a-file-and-replace-it-by-a-symlink

Äquivalent gibt es das sicher auch für Windows und Powershell.
#19
Allgemein / Aw: Bestätigung beim löschen v...
Letzter Beitrag von Major_Tom - 09. Februar 2024, 10:07:01
Hab zwar nur die 2.1.2 installiert, aber die Einstellung sollte sich nicht geändert haben:

#20
Allgemein / Bestätigung beim löschen verhi...
Letzter Beitrag von Du_Horst - 09. Februar 2024, 09:05:24
Habe mir gerade foobar2000 v2.2 preview 2024-02-05 installiert.Nun ist es so, dass die Bestätigung wieder angezeigt wird.Das war bei der foobar2000 v2.1.2 nicht so. Wo kann ich den Dialog abschalten?